<?xml version="1.0" standalone="no"?>
<!DOCTYPE svg PUBLIC "-//W3C//DTD SVG 1.1//EN" "http://www.w3.org/Graphics/SVG/1.1/DTD/svg11.dtd" >
<svg xmlns="http://www.w3.org/2000/svg">
<metadata>Generated by IcoMoon</metadata>
<defs>
<font id="icomoon" horiz-adv-x="1024">
<font-face units-per-em="1024" ascent="960" descent="-64" />
<missing-glyph horiz-adv-x="1024" />
<glyph unicode="&#x20;" horiz-adv-x="512" d="" />
<glyph unicode="&#xe8f8;" glyph-name="minus" d="M950.848 520.631c1.312 2.349-876.728 0-877.695 0-40.401 0-73.153-32.752-73.153-73.153s32.752-73.153 73.153-73.153v0h365.695c0 0.414 146.513 0 146.305 0h365.695c40.401 0 73.153 32.752 73.153 73.153s-32.752 73.153-73.153 73.153v0z" />
<glyph unicode="&#xe900;" glyph-name="pause" horiz-adv-x="878" d="M731.429 960h73.143c40.396 0 73.143-32.747 73.143-73.143v-877.714c0-40.396-32.747-73.143-73.143-73.143h-73.143c-40.396 0-73.143 32.747-73.143 73.143v877.714c0 40.396 32.747 73.143 73.143 73.143zM73.143 960h73.143c40.396 0 73.143-32.747 73.143-73.143v-877.714c0-40.396-32.747-73.143-73.143-73.143h-73.143c-40.396 0-73.143 32.747-73.143 73.143v877.714c0 40.396 32.747 73.143 73.143 73.143z" />
<glyph unicode="&#xe901;" glyph-name="chevron-thin-right" d="M678.4 448l-365.619 379.904c-13.722 13.824-13.722 36.198 0 50.125 13.722 13.824 35.891 13.824 49.613 0l400.896-404.89c13.722-13.875 13.722-36.301 0-50.125l-400.896-404.89c-13.722-13.875-35.891-13.824-49.613 0-13.722 13.773-13.722 36.198 0 50.125l365.619 379.75z" />
<glyph unicode="&#xe902;" glyph-name="rss-square" d="M928 960h-832c-52.8 0-96-43.2-96-96v-832c0-52.8 43.2-96 96-96h832c52.8 0 96 43.2 96 96v832c0 52.8-43.2 96-96 96zM279 128.8c-48 0-87 38.6-87 86.6 0 47.6 39 86.8 87 86.8 48.2 0 87-39.2 87-86.8 0-48-39-86.6-87-86.6zM497.4 128c0 81.8-31.8 158.8-89.4 216.4-57.8 57.8-134.4 89.6-216 89.6v125.2c237.6 0 431.2-193.4 431.2-431.2h-125.8zM719.6 128c0 291-236.6 528-527.4 528v125.2c360 0 653-293.2 653-653.2h-125.6z" />
<glyph unicode="&#xe903;" glyph-name="chevron-thick" d="M663.040 411.802l36.198 36.198-289.638 289.638-72.397-72.397 217.19-217.242-217.19-217.242 72.397-72.397 253.44 253.44z" />
<glyph unicode="&#xe904;" glyph-name="arrow-right" d="M1019.85 427.412c2.594 6.094 4.102 13.183 4.102 20.624 0 14.889-6.037 28.367-15.797 38.121l-377.263 377.263c-9.682 9.361-22.888 15.129-37.441 15.129-29.765 0-53.895-24.129-53.895-53.895 0-14.553 5.768-27.759 15.143-37.456l285.304-285.304h-786.109c-29.765 0-53.895-24.129-53.895-53.895s24.129-53.895 53.895-53.895v0h786.109l-285.265-285.265c-10.151-9.814-16.453-23.554-16.453-38.766 0-29.765 24.129-53.895 53.895-53.895 15.212 0 28.952 6.302 38.751 16.438l377.278 377.278c4.864 4.887 8.797 10.704 11.509 17.161l0.132 0.355z" />
<glyph unicode="&#xe905;" glyph-name="bell" d="M937.431 108.622h-850.708c-21.732 0.027-39.338 17.649-39.338 39.385 0 13.027 6.325 24.577 16.071 31.746l0.109 0.077c0.827 0.67 125.558 100.431 125.558 431.734 0 192.118 144.857 348.436 322.954 348.436s322.954-156.318 322.954-348.436c0-331.264 124.692-431.065 126.031-432.010 9.496-7.336 15.553-18.726 15.553-31.531 0-4.5-0.748-8.826-2.127-12.859l0.083 0.28c-5.387-15.665-19.959-26.737-37.13-26.821h-0.010zM170.337 187.391h683.52c-44.662 70.892-97.595 201.807-97.595 424.172 0 148.677-109.529 269.666-244.185 269.666s-244.185-120.99-244.185-269.666c0-222.366-52.933-353.28-97.556-424.172zM512.077-64.001c-39.816 0.010-74.604 21.527-93.38 53.565l-0.276 0.51c-2.826 5.295-4.487 11.582-4.487 18.256 0 21.752 17.633 39.385 39.385 39.385 13.91 0 26.136-7.211 33.143-18.1l0.094-0.156c5.269-8.895 14.818-14.766 25.738-14.766s20.469 5.871 25.662 14.628l0.076 0.138c7.101 11.044 19.327 18.256 33.237 18.256 21.752 0 39.385-17.633 39.385-39.385 0-6.674-1.66-12.96-4.59-18.468l0.103 0.213c-19.171-32.565-54.052-54.075-93.956-54.075-0.047 0-0.094 0-0.141 0h0.007z" />
<glyph unicode="&#xe906;" glyph-name="close" d="M567.69 448l444.77 444.77c6.84 7.075 11.056 16.726 11.056 27.361 0 21.752-17.633 39.385-39.385 39.385-10.635 0-20.286-4.215-27.372-11.066l-444.759-444.759-444.77 444.77c-7.075 6.84-16.726 11.056-27.361 11.056-21.752 0-39.385-17.633-39.385-39.385 0-10.635 4.215-20.286 11.066-27.372l444.759-444.759-444.77-444.77c-7.418-7.172-12.024-17.212-12.024-28.329 0-21.752 17.633-39.385 39.385-39.385 11.116 0 21.157 4.606 28.318 12.013l444.781 444.781 444.77-444.77c7.075-6.84 16.726-11.056 27.361-11.056 21.752 0 39.385 17.633 39.385 39.385 0 10.635-4.215 20.286-11.066 27.372l0.011-0.011z" />
<glyph unicode="&#xe907;" glyph-name="info-circle" d="M512 960c-282.77 0-512-229.23-512-512s229.23-512 512-512c282.77 0 512 229.23 512 512v0c-0.336 282.635-229.365 511.664-511.968 512h-0.032zM512 14.769c-239.267 0-433.231 193.964-433.231 433.231s193.964 433.231 433.231 433.231c239.267 0 433.231-193.964 433.231-433.231v0c-0.291-239.15-194.081-432.94-433.203-433.231h-0.028zM512 462.1c-21.752 0-39.385-17.633-39.385-39.385v0-148.598c0-21.752 17.633-39.385 39.385-39.385s39.385 17.633 39.385 39.385v0 148.598c0 21.752-17.633 39.385-39.385 39.385v0zM539.963 665.009c-7.277 6.885-17.126 11.118-27.963 11.118s-20.686-4.233-27.982-11.136l0.019 0.018c-7.064-7.198-11.424-17.072-11.424-27.963s4.36-20.765 11.43-27.969l-0.006 0.006c3.649-3.455 7.963-6.252 12.724-8.173l0.273-0.097c4.411-1.931 9.545-3.083 14.941-3.151h0.025c2.86 0.096 5.575 0.378 8.229 0.838l-0.352-0.050c2.66 0.471 5.039 1.293 7.229 2.429l-0.139-0.066c2.705 0.94 5.048 2.139 7.19 3.61l-0.101-0.066c2.206 1.563 4.132 3.114 5.959 4.772l-0.051-0.046c6.937 7.275 11.257 17.099 11.421 27.931v0.032c0.007 0.259 0.011 0.563 0.011 0.869 0 5.121-1.166 9.97-3.248 14.295l0.086-0.198c-2.018 5.034-4.815 9.348-8.288 13.016l0.017-0.019z" />
<glyph unicode="&#xe908;" glyph-name="phone-ring" d="M994.481 192.346l-147.985 148.068c-19.060 18.964-45.34 30.686-74.358 30.686-0.206 0-0.412-0.001-0.618-0.002h0.032c-0.019 0-0.042 0-0.065 0-30.743 0-58.555-12.547-78.596-32.799l-57.626-57.598c-63.577 33.641-118.219 73.838-166.142 120.858l0.11-0.108c-46.983 47.821-87.242 102.47-119.103 162.273l-1.841 3.786 57.671 57.616c20.206 19.775 32.734 47.327 32.734 77.803 0 29.502-11.739 56.261-30.8 75.863l-147.933 148.071c-19.020 19.044-45.309 30.825-74.349 30.825-0.258 0-0.516-0.001-0.773-0.003h0.040c-30.068-0.003-57.336-11.992-77.285-31.451l0.023 0.022c-51.548-46.674-87.563-109.653-99.894-180.752l-0.272-1.89c-33.278-162.472 43.184-318.846 263.907-539.65 246.577-246.495 457.063-265.645 515.726-265.645 0.463-0.004 1.009-0.006 1.557-0.006 7.042 0 13.998 0.363 20.852 1.071l-0.858-0.072c76.813 4.020 143.767 42.964 185.736 101.129l0.494 0.72c18.069 19.828 29.135 46.313 29.135 75.381 0 29.27-11.22 55.921-29.593 75.884l0.072-0.080zM945.364 80.978c-32.077-46.424-84.38-76.897-143.891-78.609l-0.259-0.006s-4.94-0.551-14.156-0.551c-52.428 0-241.473 17.826-470.776 247.046-203.531 203.669-274.889 343.321-246.577 482.034 9.193 58.169 37.304 108.556 77.722 145.784l0.175 0.159 1.904 1.408 1.655 1.655c8.581 8.762 20.503 14.224 33.701 14.321h0.018c0.122 0.001 0.267 0.002 0.412 0.002 11.543 0 21.997-4.66 29.585-12.201l148.121-147.983c7.553-8.065 12.192-18.941 12.192-30.9 0-12.949-5.439-24.628-14.158-32.878l-0.021-0.020-66.28-66.362c-7.902-9.074-12.72-21.013-12.72-34.080 0-9.738 2.676-18.85 7.333-26.643l-0.131 0.238c37.409-71.583 82.453-133.064 135.316-186.836l-0.107 0.109c53.53-52.618 114.845-97.558 182.007-132.882l4.223-2.024c7.948-4.521 17.446-7.222 27.567-7.312h0.027c0.025 0 0.055 0 0.084 0 15.393 0 29.185 6.854 38.491 17.676l0.057 0.067 61.203 61.175c8.596 8.733 20.536 14.154 33.742 14.184h0.006c0.126 0.001 0.276 0.002 0.426 0.002 11.541 0 22.001-4.625 29.629-12.122l-0.006 0.006 147.626-147.847c6.716-8.433 10.776-19.242 10.776-30.998 0-13.924-5.695-26.517-14.882-35.579l-0.006-0.006zM620.365 802.002c127.807-21.828 227.118-121.642 247.94-247.918l0.238-1.749c1.784-15.994 15.22-28.319 31.538-28.339h0.002c0.034 0 0.073 0 0.112 0 1.186 0 2.354 0.071 3.503 0.207l-0.139-0.014c16.003 1.788 28.332 15.242 28.332 31.574 0 1.212-0.068 2.409-0.2 3.586l0.013-0.144c-24.364 157.573-146.775 280.61-301.991 305.653l-2.091 0.279c-0.817 0.075-1.769 0.117-2.73 0.117-17.556 0-31.788-14.232-31.788-31.788 0-15.958 11.76-29.17 27.087-31.443l0.173-0.021zM590.675 668.917c75.632-15.6 134.153-74.399 149.133-148.947l0.204-1.217c1.784-15.994 15.22-28.319 31.538-28.339h0.002c0.033 0 0.072 0 0.11 0 1.177 0 2.336 0.071 3.476 0.207l-0.137-0.013c16.015 1.777 28.357 15.236 28.357 31.577 0 1.202-0.067 2.388-0.197 3.555l0.013-0.143c-18.49 105.335-100.068 187.332-203.667 206.222l-1.547 0.234c-0.817 0.075-1.769 0.117-2.73 0.117-17.556 0-31.788-14.232-31.788-31.788 0-15.958 11.76-29.17 27.087-31.443l0.173-0.021z" />
<glyph unicode="&#xe909;" glyph-name="search" d="M1008.998 23.398l-188.518 188.518c63.002 78.29 101.123 178.922 101.123 288.457 0 255.143-206.834 461.978-461.978 461.978s-461.978-206.834-461.978-461.978c0-255.143 206.834-461.978 461.978-461.978 109.536 0 210.167 38.121 289.352 101.82l-0.895-0.696 188.518-188.518c9.198-8.892 21.744-14.372 35.569-14.372 28.277 0 51.2 22.923 51.2 51.2 0 13.826-5.48 26.371-14.386 35.584l0.014-0.014zM102.4 499.2c0 0.098 0 0.214 0 0.331 0 197.939 160.461 358.4 358.4 358.4s358.4-160.461 358.4-358.4c0-98.657-39.862-188.003-104.359-252.812l0.014 0.014c-0.307-0.256-0.666-0.358-0.973-0.614s-0.358-0.666-0.614-0.973c-64.761-64.287-153.974-104.017-252.467-104.017-197.823 0-358.213 160.274-358.4 358.054v0.018z" />
<glyph unicode="&#xe90a;" glyph-name="subscribe" d="M1023.674 916.239c-0.257 4.476-1.107 8.667-2.473 12.617l0.098-0.327c-0.587 1.754-1.185 3.201-1.867 4.6l0.098-0.223c-2.355 5.307-5.489 9.841-9.313 13.689l0.002-0.002c-3.934 3.822-8.56 6.957-13.669 9.195l-0.297 0.116c-1.135 0.529-2.539 1.066-3.983 1.515l-0.254 0.068c-3.653 1.308-7.877 2.175-12.267 2.416l-0.116 0.005c-1.21 0-2.328 0.326-3.538 0.326-5.010-0.195-9.736-1.151-14.15-2.756l0.324 0.103-931.078-325.877c-18.322-6.538-31.2-23.739-31.2-43.949 0-18.871 11.228-35.12 27.369-42.43l0.293-0.119 402.598-178.953 178.953-402.598c7.43-16.428 23.676-27.653 42.544-27.653 0.002 0 0.004 0 0.006 0h1.908c19.371 0.879 35.587 13.469 41.797 30.82l0.101 0.325 325.877 931.078c1.584 4.259 2.576 9.18 2.745 14.309l0.002 0.076c0 1.257-0.419 2.374-0.512 3.631zM800.727 802.322l-345.477-345.244-282.489 125.696zM647.099 108.668l-125.696 282.443 345.244 345.29z" />
<glyph unicode="&#xe90b;" glyph-name="plus" d="M950.847 520.669c0.553 1.036-172.762 1.036-365.418 1.036 0 192.104-0.829 364.797-0.829 365.211-0.039 40.372-32.776 73.084-73.153 73.084-0.097 0-0.194 0-0.291-0.001h0.015c-40.282-0.157-72.876-32.848-72.876-73.152 0 0 0 0 0-0.001v0-365.142c-192.035 0-364.727-0.76-365.142-0.76-40.401 0-73.153-32.752-73.153-73.153s32.752-73.153 73.153-73.153v0h365.142v-365.418c0-40.401 32.752-73.153 73.153-73.153s73.153 32.752 73.153 73.153v0c1.105-0.622 1.174 172.693 0.967 365.142h365.28c40.401 0 73.153 32.752 73.153 73.153s-32.752 73.153-73.153 73.153v0z" />
<glyph unicode="&#xe90c;" glyph-name="print" d="M875.163 644.465h-35.721v256c0 35.721-23.814 59.535-59.535 59.535h-541.767c-35.721 0-59.535-23.814-59.535-59.535v-256h-29.767c-83.349 0-148.837-65.488-148.837-148.837v-226.233c0-83.349 65.488-154.791 148.837-148.837h29.767v-125.023c0-35.721 23.814-59.535 59.535-59.535h547.721c29.767 0 59.535 23.814 53.581 59.535v119.070h35.721c83.349 0 148.837 71.442 148.837 154.791v226.233c0 83.349-65.488 148.837-148.837 148.837zM297.674 840.93h428.651v-196.465h-428.651v196.465zM720.372 55.070h-422.698v244.093h422.698v-244.093zM904.93 263.442c0-17.86-11.907-29.767-29.767-29.767h-35.721v125.023c0 35.721-23.814 59.535-59.535 59.535h-541.767c-35.721 0-59.535-23.814-59.535-59.535v-119.070h-29.767c-17.86 0-29.767 11.907-29.767 29.767v226.233c0 11.907 11.907 29.767 29.767 29.767h726.326c17.86 0 29.767-11.907 29.767-29.767v-232.186z" />
<glyph unicode="&#xe90d;" glyph-name="share" d="M782.71-63.999h-541.767c-83.349 0-148.837 65.488-148.837 148.837v363.163c0 35.721 23.814 59.535 59.535 59.535s59.535-23.814 59.535-59.535v-363.163c0-17.86 11.907-29.767 29.767-29.767h541.767c17.86 0 29.767 11.907 29.767 29.767v363.163c0 35.721 23.814 59.535 59.535 59.535s59.535-23.814 59.535-59.535v-363.163c5.953-83.349-65.488-148.837-148.837-148.837zM735.082 763.536l-178.605 178.605c0 0-5.953 0-5.953 5.953-5.953 0-5.953 5.953-11.907 5.953-11.907 5.953-17.86 5.953-23.814 5.953 0 0 0 0 0 0s0 0 0 0 0 0-5.953 0-11.907 0-17.86-5.953c-5.953 0-11.907-5.953-17.86-11.907l-178.605-178.605c-23.814-23.814-23.814-59.535 0-83.349 5.953-11.907 23.814-17.86 35.721-17.86s29.767 5.953 41.674 17.86l77.395 77.395v-446.512c0-35.721 23.814-59.535 59.535-59.535s59.535 23.814 59.535 59.535v446.512l77.395-77.395c23.814-23.814 59.535-23.814 83.349 0 29.767 17.86 29.767 59.535 5.953 83.349z" />
<glyph unicode="&#xe90e;" glyph-name="text-size-decrease" d="M451.81 441.6h120.381l180.571-505.6h-108.343l-36.114 108.343h-192.61l-30.095-108.343h-114.362l180.571 505.6zM445.79 128.61h132.419l-66.21 198.629-66.21-198.629z" />
<glyph unicode="&#xe90f;" glyph-name="text-size-default" d="M605.462 710.4h-186.924l-273.71-774.4h166.897l53.407 160.221h287.062l46.731-160.221h180.248l-273.71 774.4zM411.862 229.739l100.138 300.414 100.138-300.414h-200.276z" />
<glyph unicode="&#xe910;" glyph-name="text-size-increase" d="M392.409 960h231.708l373.723-1024h-231.708l-67.27 209.285h-381.197l-67.27-209.285h-224.234l366.248 1024zM384.934 324.671h269.080l-134.54 411.095-134.54-411.095z" />
<glyph unicode="&#xe911;" glyph-name="rss" d="M136.293 209.070c-75.196 0-136.292-61.334-136.292-136.076 0-75.154 61.1-135.802 136.292-135.802 75.466 0 136.494 60.648 136.494 135.802-0.002 74.742-61.024 136.076-136.494 136.076zM0.155 612.070v-196.258c127.784 0 247.958-49.972 338.458-140.512 90.384-90.318 140.282-211.036 140.282-339.3h197.122c-0.002 372.82-303.282 676.070-675.862 676.070zM0.387 960v-196.356c455.782 0 826.756-371.334 826.756-827.644h196.856c0 564.47-459.254 1024-1023.612 1024z" />
<glyph unicode="&#xe912;" glyph-name="tiktok" d="M534.613 959.141c55.892 0.853 111.359 0.427 166.825 0.853 3.413-65.279 26.88-131.838 74.666-177.918 47.786-47.359 115.199-69.119 180.905-76.372v-171.945c-61.439 2.133-123.306 14.933-179.198 41.386-24.32 11.093-46.932 25.173-69.119 39.68-0.427-124.585 0.427-249.17-0.853-373.328-3.413-59.732-23.040-119.039-57.599-168.105-55.892-81.919-152.745-135.251-252.157-136.958-61.012-3.413-122.026 13.227-174.078 43.946-86.186 50.772-146.771 143.785-155.731 243.624-0.853 21.333-1.28 42.666-0.427 63.572 7.68 81.066 47.786 158.718 110.079 211.624 70.826 61.439 169.811 90.879 262.397 73.386 0.853-63.146-1.707-126.291-1.707-189.438-42.239 13.653-91.732 9.813-128.851-15.787-26.88-17.493-47.359-44.372-58.026-74.666-8.96-21.76-6.4-45.652-5.973-68.692 10.24-69.972 77.652-128.851 149.331-122.452 47.786 0.427 93.439 28.16 118.186 68.692 8.107 14.080 17.067 28.587 17.493 45.226 4.267 76.372 2.56 152.318 2.987 228.69 0.427 171.945-0.427 343.463 0.853 514.981z" />
<glyph unicode="&#xe913;" glyph-name="youtube" d="M1013.6 652.7c0 0-10 70.6-40.8 101.6-39 40.8-82.6 41-102.6 43.4-143.2 10.4-358.2 10.4-358.2 10.4h-0.4c0 0-215 0-358.2-10.4-20-2.4-63.6-2.6-102.6-43.4-30.8-31-40.6-101.6-40.6-101.6s-10.2-82.8-10.2-165.8v-77.6c0-82.8 10.2-165.8 10.2-165.8s10-70.6 40.6-101.6c39-40.8 90.2-39.4 113-43.8 82-7.8 348.2-10.2 348.2-10.2s215.2 0.4 358.4 10.6c20 2.4 63.6 2.6 102.6 43.4 30.8 31 40.8 101.6 40.8 101.6s10.2 82.8 10.2 165.8v77.6c-0.2 82.8-10.4 165.8-10.4 165.8zM406 315.1v287.8l276.6-144.4-276.6-143.4z" />
<glyph unicode="&#xe914;" glyph-name="snapchat" d="M520.789 926.165c42.24 0 185.472-11.776 253.013-163.029 22.571-50.901 17.195-137.344 12.757-206.805l-0.128-2.56c-0.512-7.68-0.939-14.72-1.28-21.76 3.2-1.92 8.661-3.84 17.109-3.84 12.8 0.683 28.117 5.12 44.075 12.843 7.040 3.755 14.677 4.437 19.797 4.437 7.765 0 15.317-1.237 21.717-3.84 19.2-6.357 31.317-20.437 31.317-35.755 0.64-19.157-16.64-35.797-51.755-49.835-3.797-1.237-8.917-3.2-14.677-5.077-19.2-5.76-48.597-15.36-56.875-34.56-3.84-9.557-2.603-22.357 5.12-37.035l0.64-0.64c2.56-5.803 65.109-148.267 204.416-171.264 10.88-1.877 18.56-11.52 17.92-21.717 0-3.2-0.64-6.357-1.92-9.6-10.24-24.277-54.315-42.155-134.229-54.229-2.517-3.883-5.12-16-6.997-24.32-1.237-7.637-3.157-15.36-5.717-23.595-3.243-11.563-11.52-17.28-23.68-17.28h-1.28c-5.76 0-13.355 1.323-22.955 3.157-15.36 3.2-32.64 5.76-54.315 5.76-12.8 0-25.557-0.64-38.955-3.157-25.6-4.437-47.915-19.797-73.515-37.717-36.395-25.557-77.909-54.955-140.544-54.955-2.56 0-5.077 0.64-7.68 0.64h-6.357c-62.635 0-103.552 28.8-139.904 54.955-25.557 17.92-47.232 33.237-72.832 37.717-13.397 1.92-26.837 3.157-39.595 3.157-23.040 0-40.875-3.797-54.272-6.357-9.003-1.835-16.683-3.157-23.040-3.157-15.957 0-22.315 9.557-24.875 17.92-2.603 8.192-3.84 16.597-5.76 24.192-1.963 7.723-4.48 21.077-7.083 24.32-81.835 9.472-125.867 27.392-136.064 52.309-1.323 2.688-2.219 6.4-2.347 9.6-0.64 10.368 7.040 19.84 17.92 21.717 139.264 23.040 201.813 165.504 204.416 171.52l0.683 1.237c7.68 14.72 9.557 27.52 5.077 37.077-8.32 18.517-37.717 28.075-56.832 34.517-5.163 1.237-10.24 3.157-14.763 5.077-47.232 18.56-53.632 39.68-51.072 54.315 3.84 20.437 28.757 33.835 49.835 33.835 6.229 0 11.52-1.237 16.341-3.157 17.92-8.277 33.664-12.8 47.104-12.8 9.984 0 16.384 2.56 19.84 4.48l-1.963 24.277c-4.181 69.376-9.6 155.776 13.099 206.379 65.664 150.485 208.469 162.005 250.624 162.005l17.877 0.64z" />
<glyph unicode="&#xe915;" glyph-name="snapchat-square" d="M853.333 279.999c0 9.333-5.333 16-14.666 18.001-60.667 12.667-106.667 55.334-132 111.334-2.667 5.333-4.667 10.667-4.667 16.667 0 30 82.667 24 82.667 66.667 0 18.001-22 29.334-38 29.334-14.666 0-26.667-10.667-42-10.667-2.667 0-5.333 0.666-8 1.334 2 25.333 3.333 51.333 3.333 76.666 0 22.667-1.334 54.667-11.333 76-32.001 69.334-93.333 110-170 110-83.334 0-146.667-31.333-183.334-110-10-21.334-12-53.333-12-76.666 0-25.333 2-50.667 4.001-76-3.333-0.666-6.666-1.334-10-1.334-14.666 0-27.334 10.667-41.334 10.667-16.667 0-36.667-11.333-36.667-30 0-41.334 82.667-36 82.667-66 0-6-2-11.333-4.667-16.667-26-56-70.666-98-132-111.334-9.333-2-14.666-8.667-14.666-18.001 0-31.333 70.666-42.666 92-46.001 6-16 3.333-44 26.667-44 17.333 0 34 6.666 51.333 6.666 70.666 0 89.333-63.334 170.667-63.334 84.666 0 100.667 63.334 172.001 63.334 17.333 0 34.666-6 52-6 22.667 0 20.666 28 26 43.334 21.334 3.333 92 14.666 92 46.001zM1023.999 768v-640c0-106-86-192-192-192h-640c-106 0-192 86-192 192v640c0 106 86 192 192 192h640c106 0 192-86 192-192z" />
<glyph unicode="&#xe916;" glyph-name="facebook" d="M608 768h160v192h-160c-123.514 0-224-100.486-224-224v-96h-128v-192h128v-512h192v512h160l32 192h-192v96c0 17.346 14.654 32 32 32z" />
<glyph unicode="&#xe917;" glyph-name="instagram" d="M512 867.597c136.693 0 152.846-0.521 206.864-2.988 34.234-0.425 66.84-6.847 96.994-18.26l-1.951 0.649c44.836-17.609 79.657-52.43 96.867-96.115l0.399-1.151c10.786-28.197 17.232-60.801 17.68-94.851l0.001-0.193c2.467-53.982 2.988-70.17 2.988-206.864s-0.521-152.846-2.988-206.864c-0.425-34.234-6.847-66.84-18.26-96.994l0.649 1.951c-17.609-44.836-52.43-79.657-96.115-96.867l-1.151-0.399c-28.253-10.748-60.916-17.137-95.021-17.506l-0.16-0.001c-53.982-2.467-70.17-2.988-206.864-2.988s-152.846 0.521-206.864 2.988c-34.234 0.425-66.84 6.847-96.994 18.26l1.951-0.649c-44.836 17.609-79.657 52.43-96.867 96.115l-0.399 1.151c-10.771 28.203-17.194 60.81-17.61 94.864l-0.001 0.179c-2.396 54.086-2.917 70.17-2.917 206.933s0.521 152.846 2.988 206.864c0.425 34.234 6.847 66.84 18.26 96.994l-0.649-1.951c17.609 44.836 52.43 79.657 96.115 96.867l1.151 0.399c28.197 10.786 60.801 17.232 94.851 17.68l0.193 0.001c53.982 2.467 70.17 2.988 206.864 2.988zM512 960.071c-138.951 0-156.32-0.59-211.067-3.091-44.869-0.935-87.444-9.583-126.835-24.662l2.578 0.867c-68.955-27.203-122.517-80.767-149.101-147.946l-0.619-1.774c-14.213-36.814-22.86-79.388-23.789-123.859l-0.007-0.398c-2.501-54.886-3.091-72.255-3.091-211.206s0.59-156.32 3.091-211.067c0.935-44.869 9.583-87.444 24.662-126.835l-0.867 2.578c27.203-68.955 80.767-122.517 147.946-149.101l1.774-0.619c36.814-14.213 79.388-22.86 123.859-23.789l0.398-0.007c54.608-2.501 72.046-3.091 211.067-3.091s156.32 0.59 211.067 3.091c44.869 0.935 87.444 9.583 126.835 24.662l-2.578-0.867c68.955 27.203 122.517 80.767 149.101 147.946l0.619 1.774c14.213 36.814 22.86 79.388 23.789 123.859l0.007 0.398c2.501 54.747 3.091 72.116 3.091 211.067s-0.59 156.32-3.091 211.067c-0.935 44.869-9.583 87.444-24.662 126.835l0.867-2.578c-27.203 68.955-80.767 122.517-147.946 149.101l-1.774 0.619c-36.814 14.213-79.388 22.86-123.859 23.789l-0.398 0.007c-54.747 2.501-72.116 3.091-211.067 3.091zM512 710.792c-0.052 0-0.113 0-0.174 0-145.174 0-262.861-117.687-262.861-262.861s117.687-262.861 262.861-262.861c145.174 0 262.861 117.687 262.861 262.861 0 0.024 0 0.049 0 0.073v-0.004c-0.039 145.083-117.612 262.692-262.678 262.792h-0.009zM512 277.264c-0.052 0-0.113 0-0.174 0-94.237 0-170.632 76.395-170.632 170.632s76.395 170.632 170.632 170.632c94.201 0 170.572-76.335 170.632-170.522v-0.005c0-0.031 0-0.068 0-0.104 0-94.176-76.296-170.533-170.449-170.632h-0.009zM846.594 721.178c0-33.92-27.497-61.417-61.417-61.417s-61.417 27.497-61.417 61.417c0 33.92 27.497 61.417 61.417 61.417s61.417-27.497 61.417-61.417z" />
<glyph unicode="&#xe918;" glyph-name="linkedin" d="M18.624 618.696h210.933v-682.652h-210.933zM124.135 960c68.558 0 124.135-55.577 124.135-124.135s-55.577-124.135-124.135-124.135c-68.558 0-124.135 55.577-124.135 124.135v0c0 68.558 55.577 124.135 124.135 124.135v0zM366.209-64h210.977v335.327c0 86.886 18.624 173.728 124.091 173.728 111.747 0 111.747-99.23 111.747-179.964v-328.916h210.977v372.489c0 186.245-37.293 322.68-254.462 322.68-3.939 0.264-8.537 0.415-13.17 0.415-80.062 0-149.632-44.928-184.869-110.948l-0.55-1.127v99.013h-204.825z" />
<glyph unicode="&#xe919;" glyph-name="twitter" d="M322.474 32.841c385.612 0 596.473 319.475 596.473 596.473q0 13.61-0.614 27.089c41.153 29.996 75.847 65.903 103.614 106.886l0.96 1.503c-35.052-15.954-75.714-27.574-118.351-32.802l-2.029-0.203c43.342 26.257 75.931 66.549 91.767 114.466l0.426 1.486c-38.326-23.032-82.925-40.598-130.421-50.168l-2.696-0.453c-38.365 40.742-92.661 66.111-152.883 66.111-115.884 0-209.826-93.943-209.826-209.826 0-16.843 1.985-33.225 5.733-48.92l-0.288 1.428c-174.574 9.016-328.132 91.946-431.127 217.85l-0.841 1.061c-17.873-30.23-28.433-66.62-28.433-105.475 0-72.36 36.623-136.168 92.345-173.896l0.739-0.472c-35.019 1.118-67.571 10.7-95.979 26.756l1.039-0.54v-2.683c0.014-101.082 71.536-185.455 166.732-205.289l1.361-0.237c-16.515-4.675-35.481-7.363-55.076-7.363-14.010 0-27.698 1.374-40.939 3.995l1.332-0.22c27.642-83.896 104.539-143.71 195.656-145.463l0.206-0.003c-70.788-55.942-161.325-89.737-259.754-89.737-0.221 0-0.442 0-0.664 0h0.035c-0.010 0-0.021 0-0.033 0-17.61 0-34.974 1.057-52.030 3.111l2.056-0.202c90.676-59.049 201.636-94.165 320.801-94.165 0.193 0 0.386 0 0.58 0h-0.029z" />
<glyph unicode="&#xe91a;" glyph-name="vimeo" d="M1023.657 686.027c-4.601-99.611-74.208-236.226-208.823-409.446-139.216-180.82-257.029-271.43-353.439-271.43-59.607 0-110.212 55.006-151.417 165.218-27.603 101.011-55.006 202.023-82.609 303.034-30.603 110.212-63.407 165.218-98.611 165.218-7.601 0-34.404-16.202-80.409-48.205l-48.205 62.007c50.606 44.405 100.411 88.81 149.417 133.215 67.408 58.207 118.013 88.81 151.817 92.010 79.609 7.601 128.814-46.805 147.216-163.418 19.802-125.814 33.604-204.023 41.405-234.626 23.003-104.412 48.205-156.618 75.808-156.618 21.402 0 53.606 33.804 96.611 101.611 42.805 67.608 65.807 119.213 69.008 154.617 6.201 58.407-16.802 87.81-69.008 87.81-24.603 0-49.806-5.601-75.808-16.802 50.406 164.818 146.416 244.827 288.432 240.227 105.012-2.8 154.617-71.008 148.617-204.423z" />
<glyph unicode="&#xe91b;" glyph-name="pinterest" d="M118.155 592.615c0 227.077 208 367.385 418.46 367.385 193.231 0 369.231-132.923 369.231-336.616 0-191.384-97.845-403.692-315.693-403.692-51.692 0-116.922 25.846-142.153 73.845-46.77-185.23-43.077-212.922-146.461-354.462l-8.615-3.076-5.539 6.154c-3.693 38.769-9.23 76.924-9.23 115.693 0 125.537 57.846 307.077 86.154 428.923-15.385 31.385-19.692 69.538-19.692 103.999 0 62.153 43.077 140.922 113.231 140.922 51.692 0 79.384-39.384 79.384-88 0-80-54.154-155.076-54.154-232.615 0-52.923 43.691-89.847 94.769-89.847 141.539 0 185.23 204.307 185.23 313.231 0 145.846-103.384 225.231-243.076 225.231-162.46 0-288.001-116.922-288.001-281.846 0-79.384 48.616-120 48.616-139.077 0-15.999-11.692-72.616-32-72.616-3.076 0-7.384 1.231-10.461 1.846-88 26.461-120 143.999-120 224.614z" />
<glyph unicode="&#xe91c;" glyph-name="share-alt" horiz-adv-x="901" d="M845.71 260.873l-5.718 5.718c-33.714 30.912-78.84 49.855-128.39 49.855s-94.676-18.943-128.531-49.983l0.141 0.128-207.919 132.548c5.071 16.096 7.993 34.606 7.993 53.799s-2.922 37.703-8.345 55.11l0.352-1.311 207.919 124.751c33.985-32.462 80.136-52.44 130.952-52.44 52.644 0 100.28 21.441 134.652 56.067l0.011 0.011 9.876 12.995c26.814 32.54 43.074 74.65 43.074 120.557 0 47.611-17.49 91.138-46.395 124.505l0.202-0.238-9.876 9.876c-34.495 34.364-82.080 55.61-134.627 55.61s-100.132-21.246-134.633-55.616l0.006 0.006-14.035-14.554c-26.435-32.475-42.447-74.353-42.447-119.971 0-18.357 2.593-36.109 7.433-52.909l-0.332 1.347-207.919-124.231c-34.084 32.22-80.195 52.028-130.933 52.028-52.575 0-100.183-21.269-134.688-55.671l-9.871-9.871c-29.368-33.316-47.293-77.33-47.293-125.531s17.925-92.214 47.473-125.739l-0.18 0.208 7.797-7.797c34.483-34.295 82.022-55.495 134.511-55.495 49.574 0 94.731 18.91 128.653 49.909l-0.147-0.132 207.919-132.548c-5.218-16.603-8.225-35.694-8.225-55.488 0-52.573 21.209-100.192 55.538-134.769l-0.011 0.011 6.238-5.718c33.701-31.165 78.943-50.28 128.65-50.28s94.948 19.115 128.776 50.395l-0.126-0.115 5.718 5.718c36.677 34.67 59.505 83.659 59.505 137.98 0 50.973-20.102 97.252-52.81 131.34l0.062-0.065zM774.497 63.35c-16.198-16.297-38.629-26.383-63.415-26.383s-47.217 10.086-63.411 26.379l-0.004 0.004c-15.118 16.052-24.408 37.739-24.408 61.596s9.29 45.545 24.451 61.641l-0.042-0.046 3.119 3.119c16.256 16.171 38.668 26.168 63.415 26.168s47.159-9.996 63.419-26.171l-0.004 0.004c15.106-16.049 24.389-37.728 24.389-61.576 0-25.408-10.538-48.356-27.482-64.71l-0.026-0.025zM644.548 830.051l3.119 3.119c16.256 16.171 38.668 26.168 63.415 26.168s47.159-9.996 63.419-26.171l-0.004 0.004c14.861-16.067 23.976-37.637 23.976-61.336s-9.115-45.269-24.031-61.396l0.055 0.060c-16.198-16.297-38.629-26.383-63.415-26.383s-47.217 10.086-63.411 26.379l-0.004 0.004h-2.599c-14.171 15.895-22.831 36.972-22.831 60.072 0 22.823 8.453 43.671 22.4 59.585l-0.089-0.104zM254.181 391.862v0c-16.198-16.297-38.629-26.383-63.415-26.383s-47.217 10.086-63.411 26.379l-0.004 0.004h-2.599c-14.574 15.998-23.5 37.365-23.5 60.816s8.925 44.818 23.565 60.889l-0.065-0.072 3.119 3.119c16.198 16.297 38.629 26.383 63.415 26.383s47.217-10.086 63.411-26.379l0.004-0.004h2.599c14.574-15.998 23.5-37.365 23.5-60.816s-8.925-44.818-23.565-60.889l0.065 0.072z" />
<glyph unicode="&#xe91d;" glyph-name="minus-alt" d="M1024 371.2h-1024v153.6h1024z" />
<glyph unicode="&#xe91e;" glyph-name="plus-alt" d="M1024 371.2h-1024v153.6h1024zM435.2-64v1024h153.6v-1024z" />
<glyph unicode="&#xe91f;" glyph-name="bus" horiz-adv-x="1051" d="M229.791 276.98h118.249v-70.596h-118.249v70.596zM702.787 276.98h118.249v-70.596h-118.249v70.596zM1036.707 680.791l-94.599 70.596v96.364c-1.567 62.335-52.471 112.268-115.038 112.268-0.757 0-1.512-0.007-2.265-0.022l0.113 0.002h-599.010c-0.638 0.013-1.39 0.020-2.144 0.020-62.496 0-113.32-49.974-114.691-112.141l-0.002-0.128v-96.011l-94.952-70.949c-8.612-6.508-14.119-16.73-14.119-28.239v0-163.431h70.596v145.781l38.475 28.592v-498.057c0.697-27.103 10.865-51.703 27.302-70.741l-0.122 0.145v-95.658c-0.001-0.105-0.001-0.229-0.001-0.353 0-34.506 27.972-62.478 62.478-62.478 0 0 0.001 0 0.001 0h136.251c34.506 0 62.478 27.972 62.478 62.478v0 54.359h255.912v-54.359c0.2-34.548 28.253-62.478 62.83-62.478 0 0 0.001 0 0.001 0h135.898c34.548 0.2 62.478 28.253 62.478 62.83 0 0 0 0.001 0 0.001v0 95.305c16.296 18.933 26.547 43.48 27.527 70.392l0.006 0.204v498.41l38.122-28.592v-145.781h70.596v163.431c0 11.508-5.507 21.73-14.030 28.174l-0.089 0.064zM179.668 380.051v343.098h310.624v-343.098zM179.668 165.438v144.017h691.844v-144.017c-1.501-23.342-20.8-41.706-44.389-41.706-0.775 0-1.546 0.020-2.312 0.059l0.107-0.004h-599.010c-0.652-0.034-1.416-0.054-2.184-0.054-23.518 0-42.739 18.4-44.051 41.59l-0.005 0.116zM560.888 380.051v343.098h310.624v-343.098zM225.908 889.404h600.069c0.658 0.035 1.429 0.055 2.204 0.055 23.589 0 42.889-18.364 44.383-41.576l0.007-0.131v-54.006h-692.903v54.006c1.318 23.306 20.538 41.706 44.056 41.706 0.768 0 1.532-0.020 2.291-0.058l-0.106 0.004zM326.861 6.949h-120.014v48.006c5.714-1.091 12.302-1.732 19.033-1.765h100.981zM723.966 6.949v46.241h100.953c6.759 0.033 13.347 0.674 19.739 1.87l-0.678-0.105v-48.006z" />
<glyph unicode="&#xe920;" glyph-name="schedule" d="M512 960c-141.038-0.678-268.422-58.574-360.24-151.646l-0.056-0.057c-91.745-92.555-148.436-219.989-148.436-360.663 0-282.979 229.4-512.379 512.379-512.379s512.379 229.4 512.379 512.379c0 282.979-229.4 512.379-512.379 512.379-1.282 0-2.563-0.005-3.843-0.014l0.196 0.001zM512 11.852c-240.878 0-436.148 195.27-436.148 436.148s195.27 436.148 436.148 436.148c240.878 0 436.148-195.27 436.148-436.148v0c0.013-1.246 0.020-2.718 0.020-4.192 0-238.574-193.402-431.976-431.976-431.976-1.474 0-2.947 0.007-4.417 0.022l0.225-0.002zM457.766 823.846h75.852v-65.233h-75.852v65.233zM281.195 767.98l65.617 38.052 34.057-58.727-65.617-38.052-34.057 58.727zM154.345 612.923l37.926 65.69 58.792-33.944-37.926-65.69-58.792 33.944zM136.154 502.234h65.233v-75.852h-65.233v75.852zM154.359 293.641l37.926-65.612 58.785 34.133-37.926 65.612-58.785-34.133zM281.395 138.89l33.944 58.792 65.69-37.926-33.944-58.792-65.69 37.926zM457.766 137.387h75.852v-65.233h-75.852v65.233zM632.368 159.717l65.69 37.926 33.944-58.792-65.69-37.926-33.944 58.792zM762.325 261.958l37.926 65.69 58.792-33.944-37.926-65.69-58.792 33.944zM822.613 502.234h65.233v-75.852h-65.233v75.852zM859.401 613.357l-37.926 65.612-59.164-34.133 37.926-65.612 59.164 34.133zM632.36 746.87l33.944 58.792 65.69-37.926-33.944-58.792-65.69 37.926zM379.259 634.975l-61.061-46.27 158.53-204.041c6.984-9.009 17.798-14.761 29.957-14.791h0.005c9.3 0.096 17.78 3.524 24.323 9.145l-0.050-0.042 136.154 113.778-48.545 57.647-105.813-88.367z" />
<glyph unicode="&#xe921;" glyph-name="trip-planner" horiz-adv-x="904" d="M157.456 516.195l29.278 42.488c3.57 4.999 85.333 123.18 102.114 149.958 16.421 24.681 26.202 55.008 26.202 87.619 0 2.335-0.050 4.659-0.149 6.97l0.011-0.329c0 86.961-70.495 157.456-157.456 157.456s-157.456-70.495-157.456-157.456v0c-0.040-1.33-0.062-2.894-0.062-4.464 0-32.898 9.887-63.486 26.852-88.956l-0.369 0.589c16.781-26.778 98.187-144.96 101.757-149.958zM71.409 803.258c0 47.523 38.525 86.047 86.047 86.047s86.047-38.525 86.047-86.047v0c0.2-2.222 0.314-4.806 0.314-7.418 0-18.731-5.863-36.092-15.854-50.348l0.187 0.282c-9.64-15.71-44.63-66.767-71.409-104.614-24.993 38.561-60.34 89.975-69.98 104.614-9.775 14.183-15.613 31.736-15.613 50.653 0 2.404 0.094 4.786 0.279 7.143l-0.020-0.312zM152.457 319.464c0 59.157 47.956 107.113 107.113 107.113v0h405.601c98.595 0 178.522 79.927 178.522 178.522s-79.927 178.522-178.522 178.522v0h-171.738l55.699 56.056-49.272 48.915-142.817-142.817 142.817-142.817 50.343 50.343-56.77 56.77h171.738c59.157 0 107.113-47.956 107.113-107.113s-47.956-107.113-107.113-107.113v0h-406.315c-98.595 0-178.522-79.927-178.522-178.522s79.927-178.522 178.522-178.522v0h285.635v71.409h-285.635c-58.858 0.393-106.42 48.197-106.42 107.111 0 0.754 0.008 1.506 0.023 2.257l-0.002-0.112zM746.22 379.805c0 0 0 0 0 0-86.835 0-157.253-70.292-157.456-157.080v-0.019c-0.072-1.798-0.114-3.908-0.114-6.029 0-32.86 9.908-63.405 26.9-88.811l-0.365 0.58c16.781-26.778 98.187-144.96 101.757-149.958l29.278-42.488 29.278 42.488c3.57 4.999 85.333 123.18 102.114 149.958 16.421 24.681 26.202 55.008 26.202 87.619 0 2.335-0.050 4.659-0.149 6.97l0.011-0.329c-0.203 86.807-70.621 157.099-157.456 157.099 0 0 0 0 0 0v0zM817.629 165.579c-9.64-15.71-44.63-66.767-71.409-104.614-25.707 35.704-61.054 88.904-71.409 104.614-9.733 14.162-15.544 31.678-15.544 50.552 0 2.062 0.069 4.108 0.206 6.135l-0.015-0.275c0 47.523 38.525 86.047 86.047 86.047s86.047-38.525 86.047-86.047v0c0.15-1.926 0.236-4.171 0.236-6.436 0-18.237-5.558-35.175-15.072-49.214l0.197 0.308z" />
<glyph unicode="&#xe922;" glyph-name="chat" d="M32.743-64c-18.146 0.297-32.743 15.077-32.743 33.267 0 0.001 0 0.003 0 0.004v0 851.309c0 77 62.421 139.42 139.42 139.42v0h745.159c77 0 139.42-62.421 139.42-139.42v-532.332c0-77-62.421-139.42-139.42-139.42v0h-625.279l-202.793-203.321c-6.215-5.809-14.561-9.407-23.745-9.506h-0.020zM138.364 893.987c-40.085-0.595-72.351-33.229-72.351-73.399 0-0.003 0-0.005 0-0.008v0-771.565l158.432 158.432c5.996 5.88 14.218 9.509 23.288 9.509 0.168 0 0.335-0.001 0.502-0.004h636.344c40.542 0 73.407 32.865 73.407 73.407v0 530.22c0 40.542-32.865 73.407-73.407 73.407v0z" />
<glyph unicode="&#xe923;" glyph-name="global" d="M511.614 960c-282.983-0.001-512.386-229.404-512.386-512.386s229.403-512.386 512.386-512.386c282.983 0 512.386 229.403 512.386 512.386 0 0.272 0 0.544-0.001 0.816v-0.043c-0.44 282.651-229.674 511.614-512.386 511.614h-0.001zM922.759 496.302h-180.069c-11.384 131.372-54.5 250.739-121.569 352.983l1.78-2.891c160.518-45.47 279.708-181.548 299.667-348.129l0.192-1.963zM381.778 399.698h262.762c-12.152-129.578-60.234-246.022-134.056-341.565l1.129 1.52c-72.162 94.194-119.932 210.583-131.95 337.386l-0.204 2.659zM379.46 496.302c12.222 129.461 59.991 245.85 133.321 341.634l-1.167-1.588c72.693-94.023 120.775-210.468 132.727-337.422l0.2-2.623zM401.099 846.394c-65.613-99.252-108.784-218.692-119.602-347.339l-0.186-2.753h-180.069c20.568 168.366 139.569 304.247 296.934 349.375l2.924 0.717zM101.241 399.698h180.069c11.384-131.372 54.5-250.739 121.569-352.983l-1.78 2.891c-160.518 45.47-279.708 181.548-299.667 348.129l-0.192 1.963zM622.128 49.606c65.849 99.212 109.272 218.625 120.366 347.281l0.195 2.811h180.069c-20.056-168.819-139.675-305.073-297.731-349.398l-2.9-0.694z" />
<glyph unicode="&#xe924;" glyph-name="triangle-down" horiz-adv-x="2046" d="M2045.774 960l-1021.774-1021.774-1024 1021.774z" />
<glyph unicode="&#xe925;" glyph-name="clock" d="M511.819 960c281.418-0.463 509.374-228.704 509.374-510.186 0-281.768-228.418-510.187-510.187-510.187s-510.187 228.418-510.187 510.187c0 210.038 126.924 390.432 308.256 468.666l3.311 1.271c58.732 25.447 127.13 40.249 198.986 40.249 0.157 0 0.315 0 0.472 0h-0.025zM511.819-19.037c257.331 0.537 465.731 209.268 465.731 466.673 0 257.737-208.937 466.674-466.674 466.674s-466.674-208.937-466.674-466.674c0-192.628 116.708-357.998 283.272-429.255l3.043-1.157c53.268-22.928 115.275-36.262 180.396-36.262 0.319 0 0.638 0 0.956 0.001h-0.050zM513.994 759.297h-45.326v66.357h45.326zM321.813 716.873l-34.448 59.83 38.618 22.663 34.448-59.83zM212.306 590.686l-59.83 34.448 22.663 39.343 60.193-34.448zM192.544 437.847h-65.994v45.326h66.357zM175.139 234.788l-22.663 38.618 59.83 34.448 23.025-39.343zM325.983 99.173l-39.343 22.663 34.448 59.83 39.343-22.663zM513.994 62.187h-45.326v66.357h45.326zM678.436 99.173l-34.448 59.83 39.161 22.663 34.448-59.83zM830.006 234.788l-59.83 34.448 22.663 38.074 59.83-34.448zM889.654 437.847h-66.357v45.326h66.357zM792.839 590.686l-22.663 39.343 59.83 34.448 22.663-39.343zM683.15 716.873l-39.161 22.663 34.448 59.83 39.343-22.663zM502.572 379.83c-0.108-0.002-0.236-0.003-0.364-0.003-7.203 0-13.614 3.387-17.729 8.656l-0.037 0.050-160.816 207.955 36.261 27.739 146.674-188.555 120.023 100.079 29.008-34.81-137.972-115.127c-3.99-3.576-9.242-5.817-15.015-5.982l-0.034-0.001z" />
<glyph unicode="&#xe926;" glyph-name="service-updates" d="M755.067 379.926c16.282 0.417 29.321 13.715 29.321 30.059 0 0.003 0 0.006 0 0.010v0 76.198c-0.105 16.564-13.504 29.963-30.058 30.068h-49.501c-2.428 6.723-5.229 13.447-8.217 19.983l35.484 35.484c5.403 5.435 8.743 12.926 8.743 21.197s-3.34 15.762-8.744 21.199l-53.972 53.972c-5.493 5.273-12.966 8.52-21.197 8.52s-15.704-3.247-21.208-8.53l-35.474-35.474c-6.537 2.988-13.26 5.79-19.983 8.217v50.238c-0.105 16.564-13.504 29.963-30.058 30.068h-76.208c-16.564-0.105-29.963-13.504-30.068-30.058v-50.248c-8.186-2.948-14.781-5.782-21.187-8.941l1.204 0.537-35.484 35.484c-5.522 5.285-13.027 8.538-21.291 8.538s-15.768-3.253-21.302-8.548l0.011 0.011-53.787-54.16c-5.359-5.455-8.667-12.94-8.667-21.197s3.308-15.742 8.671-21.202l35.48-35.48c-2.988-6.537-5.79-13.073-8.217-19.796h-50.238c-16.564-0.105-29.963-13.504-30.068-30.058v-76.208c0-16.606 13.462-30.068 30.068-30.068v0h50.425c2.803-8.176 5.58-14.841 8.712-21.302l-0.495 1.132-35.484-35.484c-5.448-5.414-8.82-12.912-8.82-21.197s3.372-15.783 8.819-21.196l0.002-0.002 53.973-53.787c5.455-5.359 12.94-8.667 21.197-8.667s15.742 3.308 21.202 8.671l35.48 35.48c5.158-2.573 11.695-5.347 18.396-7.774l1.4-0.443v-50.238c0.517-16.243 13.761-29.225 30.059-29.321h76.393c16.526 0.106 29.881 13.527 29.881 30.068 0 0 0 0 0 0.001v0 50.425c8.19 2.875 14.79 5.649 21.203 8.749l-1.22-0.532 35.484-35.484c5.522-5.285 13.027-8.538 21.291-8.538s15.768 3.253 21.302 8.548l-0.011-0.011 53.787 53.226c5.448 5.414 8.82 12.912 8.82 21.197s-3.372 15.783-8.819 21.196l-35.486 35.486c2.644 5.294 5.42 11.895 7.815 18.676l0.402 1.307zM603.979 306.343c-0.063 0.001-0.136 0.001-0.21 0.001-3.484 0-6.758-0.9-9.602-2.481l0.101 0.052c-11.122-6.625-23.976-12.117-37.57-15.809l-1.089-0.252c-8.155-2.551-13.975-10.023-14.007-18.859v-56.032h-58.269v56.028c-0.105 8.878-6.093 16.329-14.242 18.642l-0.138 0.034c-14.986 4.22-28.073 9.955-40.137 17.216l0.731-0.408c-2.796 1.758-6.195 2.801-9.838 2.801-5.404 0-10.273-2.296-13.683-5.965l-0.011-0.012-39.219-39.219-40.9 40.9 39.219 39.219c3.681 3.421 5.976 8.289 5.976 13.693 0 3.643-1.043 7.043-2.847 9.916l0.046-0.078c-6.436 11.152-11.914 24.051-15.767 37.632l-0.294 1.214c-2.010 8.311-9.384 14.387-18.177 14.387-0.176 0-0.35-0.002-0.525-0.007l0.026 0.001h-56.028v57.895h56.028c8.878 0.105 16.329 6.093 18.642 14.242l0.034 0.138c4.223 14.932 9.827 27.953 16.872 40.030l-0.437-0.811c1.566 2.801 2.488 6.145 2.488 9.705 0 5.447-2.159 10.39-5.669 14.019l0.005-0.006-39.219 39.219 40.9 40.713 39.219-39.033c3.408-3.571 8.205-5.792 13.52-5.792 0.106 0 0.211 0.001 0.316 0.003h-0.016c3.576 0.032 6.92 0.998 9.808 2.666l-0.096-0.051c11.152 6.436 24.051 11.914 37.632 15.767l1.214 0.294c8.287 2.347 14.276 9.798 14.38 18.664v56.040h58.456v-56.028c0.105-8.878 6.093-16.329 14.242-18.642l0.138-0.034c14.795-4.147 27.694-9.625 39.685-16.505l-0.84 0.444c2.779-1.579 6.105-2.51 9.648-2.51 5.41 0 10.313 2.17 13.887 5.687l39.216 39.216 40.713-40.9-39.033-39.219c-3.845-3.62-6.239-8.743-6.239-14.425 0-3.401 0.858-6.602 2.369-9.398l-0.052 0.105c6.784-11.215 12.566-24.158 16.682-37.824l0.313-1.209c1.941-8.403 9.36-14.573 18.22-14.573 0.16 0 0.32 0.002 0.48 0.006h56.004v-58.456h-56.028c-8.856-0.169-16.275-6.128-18.641-14.241l-0.035-0.14c-3.973-14.695-9.398-27.545-16.291-39.437l0.416 0.778c-1.579-2.779-2.51-6.105-2.51-9.648 0-5.41 2.17-10.313 5.687-13.887l39.216-39.216-40.9-40.9-39.033 39.219c-3.623 3.374-8.498 5.445-13.858 5.445-0.381 0-0.76-0.010-1.135-0.031l0.052 0.002zM512.093 577.517c-71.582 0-129.611-58.029-129.611-129.611s58.029-129.611 129.611-129.611c71.582 0 129.611 58.029 129.611 129.611 0 0.066 0 0.131 0 0.197v-0.010c-0.733 71.248-58.348 128.797-129.551 129.424h-0.060zM603.419 447.907c-0.106-50.357-40.953-91.138-91.325-91.138 0 0 0 0 0 0v0c-50.292 0.106-91.032 40.847-91.138 91.128v0.010c2.269 48.629 42.246 87.196 91.232 87.196s88.963-38.567 91.224-86.993l0.008-0.203zM1023.253 451.642c-1.594 3.457-5.030 5.814-9.016 5.814-0.245 0-0.487-0.009-0.727-0.026l0.032 0.002h-23.718c-0.245 0.022-0.531 0.035-0.819 0.035-4.478 0-8.234-3.090-9.252-7.254l-0.013-0.065v-2.054c-0.073-258.527-209.668-468.077-468.205-468.077-258.582 0-468.205 209.623-468.205 468.205s209.623 468.205 468.205 468.205c149.666 0 282.929-70.224 368.64-179.519l0.769-1.018-96.554 18.676h-1.868c-4.704-0.035-8.595-3.475-9.331-7.976l-0.007-0.055c-0.028-0.391-0.043-0.847-0.043-1.307s0.016-0.916 0.047-1.368l-0.003 0.061c0-1.868 0-4.295-1.494-7.47s-2.241-11.766-2.428-13.82c-0.159-0.646-0.251-1.387-0.251-2.15 0-4.112 2.657-7.603 6.348-8.849l0.066-0.019 152.209-29.321h1.868c0.688-0.076 1.486-0.12 2.294-0.12 11.027 0 20.162 8.099 21.782 18.673l0.015 0.123 16.808 160.613 0.747 4.109-2.801 4.482c-2.428 3.922-5.976 4.295-10.459 4.856h-8.404c-1.307 0-11.953 1.307-14.007 1.307-3.656-0.039-6.814-2.131-8.379-5.176l-0.025-0.054-3.175-4.482 1.307-1.681-10.085-100.476c-94.081 119.505-238.746 195.539-401.17 195.539-0.587 0-1.173-0.001-1.759-0.003h0.090c-0.111 0-0.242 0-0.373 0-282.821 0-512.093-229.272-512.093-512.093s229.272-512.093 512.093-512.093c282.821 0 512.093 229.272 512.093 512.093 0 0.066 0 0.131 0 0.197v-0.010 1.868z" />
<glyph unicode="&#xe927;" glyph-name="connecting-services" horiz-adv-x="1191" d="M977.404 662.008s-53.696-52.143-53.031-53.031l123.368-123.59h-207.463c-7.322 0-131.578 15.754-274.028 175.067-72.778 81.432-137.791 128.693-204.578 149.551 0 0-22.189-71.447-22.189-71.669 52.587-16.198 108.28-58.134 170.852-127.806 57.137-66.308 125.834-120.833 203.24-160.865l3.779-1.777c-81.144-41.809-149.828-96.252-206.289-161.556l-0.73-0.864c-62.572-69.894-118.265-110.943-170.852-127.806 0 0 22.189-71.225 22.189-71.669 66.566 20.635 131.8 68.119 204.578 149.329 142.45 159.314 266.262 174.402 273.806 175.067h207.685l-123.59-123.59s52.143-52.143 52.143-53.031l214.119 214.119zM149.994 960c-82.84 0-149.994-67.155-149.994-149.994s67.155-149.994 149.994-149.994c82.84 0 149.994 67.155 149.994 149.994v0c0 82.84-67.155 149.994-149.994 149.994v0zM149.994 735.008c-41.42 0-74.997 33.577-74.997 74.997s33.577 74.997 74.997 74.997c41.42 0 74.997-33.577 74.997-74.997v0c0-41.42-33.577-74.997-74.997-74.997v0zM149.994 235.989c-82.84 0-149.994-67.155-149.994-149.994s67.155-149.994 149.994-149.994c82.84 0 149.994 67.155 149.994 149.994v0c0 82.84-67.155 149.994-149.994 149.994v0zM149.994 10.997c-41.42 0-74.997 33.577-74.997 74.997s33.577 74.997 74.997 74.997c41.42 0 74.997-33.577 74.997-74.997v0 0c0-41.42-33.577-74.997-74.997-74.997v0z" />
<glyph unicode="&#xe928;" glyph-name="alert-triangle" horiz-adv-x="1172" d="M1153.89 141.787v0l-450.449 752.188c-24.494 39.895-67.884 66.102-117.394 66.102s-92.9-26.207-117.054-65.506l-0.341-0.596-450.14-751.879c-11.623-19.731-18.488-43.469-18.488-68.81 0-75.275 60.579-136.401 135.645-137.285l0.084-0.001h900.898c75.132 0.686 135.775 61.751 135.775 136.98 0 25.346-6.884 49.084-18.883 69.447l0.349-0.64zM1036.033-2.295h-899.972c-13.418 0.023-25.975 3.687-36.743 10.057l0.337-0.184c-22.875 13.284-38.012 37.668-38.012 65.587 0 13.78 3.688 26.699 10.13 37.824l-0.194-0.363 450.14 751.262c6.242 10.515 14.784 19.057 24.973 25.119l0.326 0.18c11.174 6.929 24.728 11.036 39.241 11.036 27.185 0 51.004-14.409 64.237-36.007l0.187-0.329 449.832-751.262c6.289-10.407 10.057-22.954 10.181-36.371v-0.035c0.004-0.277 0.006-0.604 0.006-0.931 0-41.423-33.32-75.064-74.62-75.583h-0.049zM586.201 635.43c-17.039 0-30.853-13.813-30.853-30.853v0-274.28c0-17.039 13.813-30.853 30.853-30.853s30.853 13.813 30.853 30.853v0 274.28c0 17.039-13.813 30.853-30.853 30.853v0zM621.064 176.034c0-19.255-15.609-34.864-34.864-34.864s-34.864 15.609-34.864 34.864c0 19.255 15.609 34.864 34.864 34.864s34.864-15.609 34.864-34.864z" />
<glyph unicode="&#xe929;" glyph-name="alerm" horiz-adv-x="768" d="M736.053 160.053h-32.369v287.947c0 176.751-143.285 320.035-320.035 320.035s-320.035-143.285-320.035-320.035v0-287.947h-31.525c0 0-0.001 0-0.001 0-17.623 0-31.927-14.206-32.087-31.791v-159.892c0 0 0-0.001 0-0.001 0-17.623 14.206-31.927 31.791-32.087h703.698c17.6 0.159 31.806 14.464 31.806 32.087 0 0 0 0.001 0 0.001v0 159.595c0.001 0.085 0.001 0.186 0.001 0.286 0 17.369-13.922 31.486-31.215 31.801h-0.030zM128.070 448c-0.092 2.559-0.144 5.566-0.144 8.585 0 141.464 114.68 256.144 256.144 256.144 138.445 0 251.237-109.837 255.988-247.124l0.012-0.435v-305.117h-512zM703.683 0.176h-639.789v95.982h639.789zM383.93 831.93v0c17.722 0 32.088 14.366 32.088 32.088v0 0 63.894c0.090 0.9 0.141 1.945 0.141 3.002 0 17.722-14.366 32.088-32.088 32.088s-32.088-14.366-32.088-32.088c0-1.057 0.051-2.102 0.151-3.133l-0.010 0.131v-63.894c-0.001-0.084-0.001-0.183-0.001-0.281 0-17.566 14.24-31.806 31.806-31.806 0 0 0.001 0 0.001 0v0zM671.877 704.141v0c8.784 0.017 16.737 3.561 22.52 9.291l-0.002-0.002 65.583 63.894c5.114 5.662 8.243 13.202 8.243 21.473 0 17.722-14.366 32.088-32.088 32.088-8.271 0-15.811-3.129-21.501-8.268l0.028 0.025-65.302-63.894c-5.706-5.789-9.23-13.743-9.23-22.52 0-17.602 14.173-31.894 31.729-32.086h0.018zM73.465 713.429c5.727-5.841 13.699-9.462 22.518-9.462s16.791 3.621 22.513 9.457l0.005 0.005c5.46 5.742 8.82 13.526 8.82 22.096s-3.359 16.354-8.832 22.109l0.013-0.014-63.894 65.020c-5.834 5.722-13.834 9.253-22.659 9.253s-16.825-3.531-22.664-9.258l0.005 0.005c-5.722-5.834-9.253-13.834-9.253-22.659s3.531-16.825 9.258-22.664l-0.005 0.005z" />
<glyph unicode="&#xe92a;" glyph-name="info-circle-thin" horiz-adv-x="1025" d="M512.135 960c282.413-0.373 511.21-229.4 511.21-511.865 0-282.695-229.17-511.865-511.865-511.865s-511.865 229.17-511.865 511.865c0 210.947 127.605 392.090 309.835 470.451l3.328 1.273c58.654 25.379 126.954 40.141 198.702 40.141 0.231 0 0.461 0 0.692 0h-0.036zM512.135-9.85c0.333-0.001 0.727-0.001 1.122-0.001 252.938 0 457.985 205.047 457.985 457.985s-205.047 457.985-457.985 457.985c-252.938 0-457.985-205.047-457.985-457.985 0-126.19 51.035-240.459 133.592-323.294l-0.012 0.012c82.676-82.955 196.943-134.382 323.222-134.701h0.061zM512.135 227.224c-14.879 0-26.94 12.062-26.94 26.94v0 247.851c0 14.879 12.062 26.94 26.94 26.94s26.94-12.062 26.94-26.94v0-247.851c0-14.879-12.062-26.94-26.94-26.94v0zM542.577 639.949c0-16.813-13.63-30.443-30.443-30.443s-30.443 13.63-30.443 30.443c0 16.813 13.63 30.443 30.443 30.443s30.443-13.63 30.443-30.443z" />
<glyph unicode="&#xe92b;" glyph-name="chevron-thin-left" horiz-adv-x="548" d="M110.672 448.081l425.13-441.85c7.409-7.484 11.986-17.783 11.986-29.151s-4.577-21.667-11.989-29.154l0.003 0.003c-7.352-7.44-17.556-12.048-28.837-12.048s-21.484 4.608-28.833 12.044l-0.004 0.004-466.152 470.92c-7.396 7.485-11.965 17.778-11.965 29.139s4.569 21.654 11.969 29.143l-0.004-0.004 466.152 470.78c7.347 7.452 17.553 12.068 28.837 12.068s21.49-4.616 28.832-12.063l0.005-0.005c7.409-7.484 11.986-17.783 11.986-29.151s-4.577-21.667-11.989-29.154l0.003 0.003-425.13-441.525z" />
<glyph unicode="&#xe989;" glyph-name="enlarge" d="M1024 960h-416l160-160-192-192 96-96 192 192 160-160zM1024-64v416l-160-160-192 192-96-96 192-192-160-160zM0-64h416l-160 160 192 192-96 96-192-192-160 160zM0 960v-416l160 160 192-192 96 96-192 192 160 160z" />
<glyph unicode="&#xe98a;" glyph-name="shrink" d="M576 512h416l-160 160 192 192-96 96-192-192-160 160zM576 384v-416l160 160 192-192 96 96-192 192 160 160zM448 384.004h-416l160-160-192-192 96-96 192 192 160-160zM448 512v416l-160-160-192 192-96-96 192-192-160-160z" />
<glyph unicode="&#xe9cb;" glyph-name="link" d="M440.236 324.234c-13.31 0-26.616 5.076-36.77 15.23-95.134 95.136-95.134 249.934 0 345.070l192 192c46.088 46.086 107.36 71.466 172.534 71.466s126.448-25.38 172.536-71.464c95.132-95.136 95.132-249.934 0-345.070l-87.766-87.766c-20.308-20.308-53.23-20.308-73.54 0-20.306 20.306-20.306 53.232 0 73.54l87.766 87.766c54.584 54.586 54.584 143.404 0 197.99-26.442 26.442-61.6 41.004-98.996 41.004s-72.552-14.562-98.996-41.006l-192-191.998c-54.586-54.586-54.586-143.406 0-197.992 20.308-20.306 20.306-53.232 0-73.54-10.15-10.152-23.462-15.23-36.768-15.23zM256-52c-65.176 0-126.45 25.38-172.534 71.464-95.134 95.136-95.134 249.934 0 345.070l87.764 87.764c20.308 20.306 53.234 20.306 73.54 0 20.308-20.306 20.308-53.232 0-73.54l-87.764-87.764c-54.586-54.586-54.586-143.406 0-197.992 26.44-26.44 61.598-41.002 98.994-41.002s72.552 14.562 98.998 41.006l192 191.998c54.584 54.586 54.584 143.406 0 197.992-20.308 20.308-20.306 53.232 0 73.54 20.306 20.306 53.232 20.306 73.54-0.002 95.132-95.134 95.132-249.932 0.002-345.068l-192.002-192c-46.090-46.088-107.364-71.466-172.538-71.466z" />
<glyph unicode="&#xe9d5;" glyph-name="contrast" d="M512 960c-282.77 0-512-229.23-512-512s229.23-512 512-512 512 229.23 512 512-229.23 512-512 512zM128 448c0 212.078 171.922 384 384 384v-768c-212.078 0-384 171.922-384 384z" />
<glyph unicode="&#xea1c;" glyph-name="play" d="M192 832l640-384-640-384z" />
<glyph unicode="&#xf03a;" glyph-name="list" d="M146.286 210.286v-109.714c0-9.714-8.571-18.286-18.286-18.286h-109.714c-9.714 0-18.286 8.571-18.286 18.286v109.714c0 9.714 8.571 18.286 18.286 18.286h109.714c9.714 0 18.286-8.571 18.286-18.286zM146.286 429.714v-109.714c0-9.714-8.571-18.286-18.286-18.286h-109.714c-9.714 0-18.286 8.571-18.286 18.286v109.714c0 9.714 8.571 18.286 18.286 18.286h109.714c9.714 0 18.286-8.571 18.286-18.286zM146.286 649.143v-109.714c0-9.714-8.571-18.286-18.286-18.286h-109.714c-9.714 0-18.286 8.571-18.286 18.286v109.714c0 9.714 8.571 18.286 18.286 18.286h109.714c9.714 0 18.286-8.571 18.286-18.286zM1024 210.286v-109.714c0-9.714-8.571-18.286-18.286-18.286h-768c-9.714 0-18.286 8.571-18.286 18.286v109.714c0 9.714 8.571 18.286 18.286 18.286h768c9.714 0 18.286-8.571 18.286-18.286zM146.286 868.571v-109.714c0-9.714-8.571-18.286-18.286-18.286h-109.714c-9.714 0-18.286 8.571-18.286 18.286v109.714c0 9.714 8.571 18.286 18.286 18.286h109.714c9.714 0 18.286-8.571 18.286-18.286zM1024 429.714v-109.714c0-9.714-8.571-18.286-18.286-18.286h-768c-9.714 0-18.286 8.571-18.286 18.286v109.714c0 9.714 8.571 18.286 18.286 18.286h768c9.714 0 18.286-8.571 18.286-18.286zM1024 649.143v-109.714c0-9.714-8.571-18.286-18.286-18.286h-768c-9.714 0-18.286 8.571-18.286 18.286v109.714c0 9.714 8.571 18.286 18.286 18.286h768c9.714 0 18.286-8.571 18.286-18.286zM1024 868.571v-109.714c0-9.714-8.571-18.286-18.286-18.286h-768c-9.714 0-18.286 8.571-18.286 18.286v109.714c0 9.714 8.571 18.286 18.286 18.286h768c9.714 0 18.286-8.571 18.286-18.286z" />
</font>
</defs>
</svg>
